Index Of Flac1 kHz (Tracks) Artist: Ibrahim Electric Title: Time Machine Released: 2020 Style: Jazz, Funk, Fusion RAR Size: 873 Mb + 257 Mb. Audio sources encoded to FLAC are typically reduced to 50–60% of their. Done! At this point, it is trivial to mv *. Audio coding format, and its reference audio codec implementation, developed by Apple Inc. The Making Of Scenes From A Memory 2004. / 01 - Walter Wanderley - Summer Samba. WAV is the default audio format for Windows techniques. Name Last modified Size Description · Parent Directory - ID7aax/ 2013-11-29 02:39 - Ace - Adrenaline. Josh Coalson is the primary author of FLAC. Pink Floyd - Animals, 1977 (FLAC). e X tended HE-AAC / X cellent Efficiency / X traordinary Quality / X ceptional. not very many artists, but damned if that isn't almost the discography for the ones there. net Free lossless and surround sound music download Our site is devoted to the new field in the music. FLAC (/ f l æ k /; Free Lossless Audio Codec) is an audio coding format for lossless compression of digital audio, developed by the Xiph. Frankston City Council PARC - Peninsula . FLAC stands for Free Lossless Audio Codec, originally developed by Josh Coalson. ulg Index of /music/Prequelle/Ghost - Prequelle [2018] [WEB - FLAC - 24-44. 988708 index 00 09:48:57 index 01 09:50:57 track 03 audio title “lovers from another time” performer “santana” isrc qmr6y1200022 rem replaygain_track_gain -4. For CD-DA, an index_number of 0 corresponds to the track pre-gap. 1 kHz (Tracks) Artist: Secret Archives Of The Vatican Title: Drums Of A Dark Age Released: 2022 Style: World, Electronic, Dark folk, Neo folk, Ritual folk RAR Size: 284 Mb Album information. Audio format albums : FLAC Lossless. Open up a terminal, cd to the directory of FLAC files that you wish to convert, and invoke flac2mp3 (or whatever you named the script). Index of /jp/tips/imgs/flac-to-m4a Name Last modified Size Description : Parent Directory - flac-to-m4a-1-mb. y70 That equals 480 MB per CD and we'll round that up to 500 MB for easy calculations going forward. wav: 04-Jun-2014 18:34 : 592K : 12 String Dream 02. Index of /~lblum/flac/Solutions. I have a few albums that the whole album is in a single flac file with a cue index. Jimi Hendrix – People, Hell & Angels (2013) [24bit FLAC] 15 March 2022 0. Index of /REPO/Jean-Michel Jarre - Oxygene 3 (2016) [FLAC]/ ;. FLAC is DVD audio/SACD/Blu-ray quality, but the soucre files have to have been high resolution to start with. You can then #include this file in other parts of the program as you would with any other header file. / 01 - Anything to Say You're Mine. FLAC is currently well-supported by many software applications and hardware support is growing. Index of /99/07/05/This Is Billie Eilish (2020) FLAC [TopSeda]/. Elisa - Dancing (2020) By admin flac-music. Some artists and services choose to put their music up for free, and they do so in a way that allows you to * Ektoplazm is a source for awesome quality electronic music. Buďte první a pomozte tak ostatním uživatelům při výběru souboru ke stažení. flac 27-Sep-2020 12:17 18862537 02 everything i wanted . 89 Kibit/s] [00:02:50] Burl Ives - Down To The Sea In Ships - 15. ml 92 GiB: Date (UTC): 2020-09-04 19:09:47: Time: 00:00:07: Speed: 17. w1 b41 Index_numbers must be unique within a track. File Name ↓ · File Size ↓ · Date ↓ · Parent directory/, -, -. Genre : Classical Release Date : 2022 Format : Flac (tracks) / Flac (tracks) Quality : 16bit – 44. Those numbers would yield 128 CDs on a run-of-the-mill 64 GB flash drive based MP3 player and 520 CDs for the Classic iPod. tuy 7K: text/x-sfv [thn100]-01-veer_-_greet_the_world_with_a_smile. Index of : /audio: Name Size ; Parent Directory - 007-GeorgeWinston-Thanksgiving. FLAC might never actually supplant MP3, however in case you care about sound quality, . nzj Hi-Res Digital Download oskar bala - god's trigger (2019) [24bit FLAC]. Index of /14/items/tntvillage_448226/Etta James - At Last! (1960 reissue 1999) FLAC/. block for storing a CD table of contents and all track and index points. So the brand new MP3 format soon change its place. index points, that could be viewed as table of contents when a CD . 8 MiB: 11/12/20 20:09:56: Men at Work - Down Under. 8M : 026-Impellitteri-SomewhereOverTheRainbow. cv 4 MiB, 4mn 4s 1 Audio stream: FLAC Duration: 4mn 4s Overall bit rate mode: Variable Overall bit rate: 2 900 Kbps Album: Raising Sand - 180 Gram Audiophile Virgin Vinyl LP - 2nd release Part: 1. MQA and FLAC are lossless encodings derived directly from our original production masters. On the Encoder Settings page select FLAC then Custom and make sure flac. Name Last modified Size; Parent Directory - 01 Kirby TV Channel Banner. Icon Name Last modified Size Description. The first index in a track must have a number of 0 or 1, and subsequently, index_numbers must increase by 1. flac 2019-07-31 20:39 687K [SND] . im 85 [GJM] To Aru Majutsu no Index III - 01 [89DF9071]. However when I try to even use the Upload function in Music player for. Index of /mp3/repertoire/lossless. Due to a planned power outage on Friday, 1/14, between 8am-1pm PST, some services may be impacted. 1 Khz 24 bit and MP3 320 Kbps formats, fully compatible with both PC and Mac. 70 (2016) [DSF DSD256 + Hi-Res FLAC] Tsuyoshi Yamamoto Trio – MISTY for Direct Cutting (2021) [DSF DSD256 + Hi-Res FLAC] Tsuyoshi Yamamoto Trio – Midnight Sugar (1974) [Japan 2006] SACD ISO + Hi-Res FLAC. 8224 MHz | 44:19 minutes | Scans included | 3,55 GB or DSD64 2. A specially designed Flash interface has been installed, and the 16GB USB’s audio and visual contents will be provided in FLAC 44. /, -, Directory ; Covers/, 2016-Dec-02 15:44:45, -, Directory. In the Broadcast and Netcast Facility. Sonny Rollins - Sonny Rollins On Impulse! (1965) [FLAC]/ 2007-02-14 07:09 - Soweto Kinch - Conversations with the Unseen/ 2007-11-09 04:34 - The 3 moons/ 2007-03-16 05:36 - eddie daniels/ 2006-05-11 09:29 - giovanni allevi/ 2007-03-30 11:44 - mario biondi - handful of soul/ 2007-02-28 09:19 - steve lacy/ 2006-11-23 05:52 - video/ 2007-02-12 09:11 -. FLAC is registered with the Charities Regulatory Authority, with Registered Charity Number: 20010256. 8 MiB: 11/12/20 21:11:46: Max Coveri - Running In The 90's. Search: Index Of Flac Pink Floyd. Also, a FLAC 0, FLAC 9, and WAV of the same song will all supply identical audio data; that is where the term ‘lossless’ comes from. Index of /xyzstorelibrary/Fleetwood Mac Name Last modified Size Description : Parent Directory - 3 CD Slipcase/ 2020-09-03 23:41. 3i5 About Pink Index Of Floyd Flac. TRACK 01 AUDIO TITLE "The Flood" PERFORMER "Various" ISRC US25L1300817 INDEX 01 00:00:00. Nel 1964 entra ed esce da gruppi british blues, suonando con John Paul Jones, futuro bassista dei Led Zeppelin, Mick Fleetwood, Julie Driscoll, il tastierista Brian Auger e gli Steampacket. All modern codecs are included: AAC, MP3, Vorbis, WMA Professional, WMA Lossless, FLAC. / (1999) [Muse] Showbiz/ 22-Mar-2020 17:26 - (2001) [Muse] Origin Of Symmetry/ . Index of /gallery/music/ORIGINAL. Name Last modified Size Description · Parent Directory - 2017-12-05_22-26-56_. 9l0 MuseScore is a scorewriter for Windows, macOS, and Linux supporting a wide variety of file formats and input methods. Figure 1: The flac command's default behavior is to encode. This is similar to how Zip works, except with FLAC you will get much better compression because it is designed specifically for audio, and you can play back compressed FLAC files in your. With Anna Paquin, Lydia Wilson, Rebecca Benson, Sophie Okonedo. After you run the program, Click the “Add Files” button to select audios and movies out of your exhausting drive. This is the source release for the FLAC project. HipHop Drum Shaker-7065-Free-Loops. A Foot In The Door - The Best Of Pink Floyd. Name · Last modified · Size · Description. qi 3h WAV is a regular audio format which developed by Microsoft and IBM. Index of /downloads/audio/special/greenfest/FLAC. Bryan Adams - So Happy It Hurts (2022) FLAC. erj This Audio Format is like MP3, but has lossless benefits, it means that audio is compressed in FLAC but remains with original sound quality. [DIR], さよならポニーテール - 新世界交響楽 (320)/, 31-Mar-2015 22:58, -. [DIR], Roger Waters - Discografi [ studiinie albomi 1970 - 2005 ]/ . 5x7 mp3 all your new MP3s wherever you wish. Org Foundation, and is also the name of the free software project producing the FLAC tools, the reference software package that includes a codec implementation. SANTANA - Live at Santa Barbara County Bowl, Santa Barbara, California, USA, 1991-09-07 [FLAC] NILS PETTER MOLVAER (with Eivind Aarset) - Live at Stadtgarten, Cologne, Germany, 2000-06-25 [FM][FLAC] PAT METHENY GROUP - The PMG Companion, Vol. wav: 04-Jun-2014 18:35 : 592K : 12 String Dream 03. This is the 5th full length release and the 1st in five years from the Las Vegas originated duo featuring guest appearances from Leann Rimes and Nick Thayer. php/ipod/calculator/ (FLAC and Apple Lossless have very similar compression ratios). Album: Marcos Resende & Index Genre: Jazz-Funk, Latin Jazz Label: Far Out Recordings Released: 2021. Download J-pop Music Mp3 Rar Flac for Free! Click here in Jpop Libs. UNAMAS Strings Septet – Tschaikovsky: Souvenir de Florence, Op. > 2017-12-05 14:30 295K 2017-12-05_22-27-01_. Free Lossless Audio Codec (FLAC) FLAC compressed lossless format reduces file size and keep binary audio content without altering. I tried splitting the files to individual songs but it missed some of the songs when converting. Free Lossless Audio Codec, or simply FLAC for short, is a music file format that gives bit-perfect CD copies at only a fraction of the regular size. Reply #8 - 2014-01-14 15:30:46. AAC-LC / HE / x HE / ALAC / FLAC Audio Streaming on the Internet. Pink Floyd Flac discography/, 2016-06-10 20:48, -. afpk 08-Sep-2019 16:10 28200 01 . Index of /projects/html/player/old/[MUSE] Discography [FLAC 24-bit 96kHz]/. Name Last modified Size Description; Parent Directory - 12 String Dream 01. Free FLAC to MP3 Converter is a free and dedicated FLAC to MP3 converter software program. CueSheetTrackIndex (index_number, index_offset) ¶ Index for a track in a cuesheet. We invite you to join us in this evaluation of future consumer delivery formats. of files located under open directories of web servers. Index of /music/big/Tool [FLAC]/. flac Format: FLAC Format / Info: Free Lossless Audio Codec File size : 76. 2013 05:42: 1 MB: Red Hot Chili Peppers - You Always Sing the Same. It may convert WMV to AIFF, 3GP to M4B (MPEG-4 audiobook), 3GP to AAC, FLAC to M4R (iPhone ringtone), M4B to AMR, 3GP to AMR, and so forth. Name Last modified Size Description · Parent Directory - CD Back Coverjpg. The mainstream ways to convert an AIFF file to a MP3 is the above 2 instructions. The Vigalanty Squad – Our Time (2002) FLAC. z7 List of official Qt-project mirrors. Robert March 2010 Nitty Gritty RCM 1. A brief description of the directory tree: doc/ the HTML documentation include/ public include files for libFLAC and libFLAC++ man/ the man page for `flac' src/ the source code and private headers test/ the test scripts. Try out sample tracks to experience High-Resolution Audio. foobar2000 does not find the correct flac. Get FLAC from here and uncompress the latest "win-zip" archive in Windows' program directory, e. Downloads Name Last modified Size; Parent Directory - atlas/ 2014-07-09 19:20 - cling/. FLAC (/flæk/; Free Lossless Audio Codec) is an audio coding format for lossless compression of digital audio, developed by the Xiph. Akses ke RED? Harus lolos dulu interviewnya. 0 khz, 24 bits, 2 channels, flac. 2013 08:41: 26 MB: Red Hot Chili Peppers - True Men Don't Kill Coyotes. a7q After mp3 (or FLAC) type in your artist, or album or (MP3) kbps or whatever extension comes to mind then hit enter . 8wz Index of /Daft Punk - Random Access Memories (2013) [Limited Box Set Edition 2014] (FLAC 24-88,2) · 01 Give Life Back to Music [ 88 24 ]. wav: 04-Jun-2014 18:34 : 592K :. [PARENTDIR] Parent Directory - [SND] 0082. The command gives solutions for any warnings or errors, in case you want to recreate the file. [PARENTDIR], Parent Directory, -. FLAC is an independent law centre under the terms of the Solicitors Acts 1954-2002 (Independent Law Centres) Regulations 2006, SI 103/2006. 1]/ ; Up Parent Directory ; File 01. [Flac] Glam rock, Soft rock, Hard rock, Folk rock, Rock n roll, British blues DISCOGRAFIA 1969-2009::::: Bio & Info :::::Roderick David Stewart (Londra, 10 gennaio 1945) è un cantautore britannico. Name Last modified Size Description · Parent Directory - Alanis Morissette/ 2008-07-24 22:14 - Alice in Chains/ 2008-07-24 . they're used to gather information about the pages you visit and how many clicks you need to accomplish a task. We'll use the worst-case scenario for FLAC, 60%, on an 800 MB CD. To use it, do something like the following in one. Steve Bug And Youandme - I Hear You feat. File-sharing websites use FLAC files because compressed files can be downloaded for free. Hip Hop Drum loop 1-5625-Free-Loops. FLAC employs a lossless data compression algorithm. md Luciano Pavarotti - O Sole Mio! - The Best. 米米CLUB - Phi [FLAC 24bit + MP3 320K / WEB] by Renge. flac" WAVE TRACK 09 AUDIO TITLE "The Name Game" PERFORMER "Shirley Ellis" REM COMPOSER "" INDEX 01 00:00:00 FILE "10 - The Ugly's - Wake Up My Mind. Genres : Alternative rock folk rock college rock jangle pop. Index of /workshops/mir2014/audio/Jam Pack 1/Jam Pack 1. Download the transformed M4A audio recordsdata to your native laptop. The Red Hot Chili Peppers’ Greatest Hits is a compelling listen, culling tracks from the band’s 1989 breakthrough, Mother’s Milk, to its melodic 2002 release, By the Way. Flack: Created by Oliver Lansley. Compressed files are easier to share. 00b: October 5 2013 at 23:05: Enrique Iglesias - Greatest Hits (2008) [EAC] [FLAC] 0. Free Lossless Audio Codec (FLAC) 44. 5M: application/octet-stream: 100_5904. Mostly movies and tv series in Latin Spanish (also English because of dual audio). These demos are not MP3 sourced, as can be seen in the image of the Frequency Analysis and Spectral View done with Cool Edit Pro. Quality: FLAC 24 bit / 96 kHz (Tracks) + FLAC 16 bit / 44. February 2022, 17:00 Paradise Lost / Shades of God Used drive : hp CDDVDW TS-U633J Adapter: 1 ID: 0. Hi-Res / FLAC CD / Rock / Metal. [ ], Rihanna - Bitch Better Have My Money. It is going to take a couple of minutes. 3 MB/s (139 mbit) Created by KoalaBear84's OpenDirectory Indexer. It continues to be maintained by various volunteers under the auspices of the Xiph. Leona Lewis - Spirit - 2007 (EAC FLAC) 0. 3 MiB: 25/05/19 15:23:44: McFLY - All About You. In this extension, I've utilized some google advanced queries and able to provides a very capable file indexing and search service allowing you to find a file among a huge no. The CUE file is the index file associated with FLAC file, if there is no CUE file, it can't select the song when playing FLAC file. */ FLAC is an Open Source lossless audio codec developed by Josh Coalson from 2001 to 2009. Shenseea - ALPHA (2022) Hi-Res. Jimi Hendrix - People, Hell & Angels (2013) [24bit FLAC] 15 March 2022 0. 2007 - Worlds Collide (Special Edition) 0. Music ( Mp3 Wav Ac3 Ogg Flac Wma M4a Index Of. Free Lossless Audio Codec (FLAC): FLAC is . t49 FLAC (Free Lossless Audio Codec) is a size-compressed but lossless digital audio format with smaller file size than uncompressed lossless formats like WAV. It only provides access to already available files in the same way Google does but in a more refined easily. High-Resolution music file (96 kHz/24 bit FLAC). 4 MiB: 25/05/19 15:22:28: Massive Attack - Unfinished Sympathy. To Aru Majutsu no index Opening 2 | 4k | 60FPS | Creditless | Flac. Greatest index ever seen (FLAC). About Flac Floyd Pink Index Of. 70 (2016) [DSF DSD256 + Hi-Res FLAC] Tsuyoshi Yamamoto Trio - MISTY for Direct Cutting (2021) [DSF DSD256 + Hi-Res FLAC] Tsuyoshi Yamamoto Trio - Midnight Sugar (1974) [Japan 2006] SACD ISO + Hi-Res FLAC. Index of /jp/tips/imgs/alac-to-flac Name Last modified Size Description : Parent Directory - alac-to-flac-1. for lossless data compression of digital music. You Took the Words Right Out of My Mouth (Hot Summer Night). [audio] · 01 Photo Channel Banner. flac 02-Nov-2019 20:54 19801080 02 - Walter . ry January 2008 EAC extraction logfile from 11. net Free lossless and surround sound music download Our site is devoted to the new field in the music industry - a surround sound and lossless music!. Index of /josx/cancion_software_libre/pistas_por_separado/flac. StreamS HiFi Radio App NOW with x HE-AAC. 00b: October 5 2013 at 23:02: Enigma - Discography [Flac] 0. Higher quality will take more time to compress however. Free Lossless Audio Codec (FLAC) is a codec for lossless audio compression. Reply #8 – 2014-01-14 15:30:46. This content is mine so it’s totally safe! **Welcome to /r/OpenDirectories** Unprotected directories of pics, vids, music, software and otherwise interesting files. 1; Pink Floyd - The Later Years (Deluxe Edition) (2019) FLAC 5. xx Robert Orban and Greg Ogonowski. You needn’t know professional knowledge of SPX and ALAC. From 2012 to 2021 it was maintained by Erik de Castro Lopo. wya FLAC stands for Free Lossless Audio Codec. Hi-Res Digital Download oskar bala – god’s trigger (2019) [24bit FLAC]. This content is mine so it's totally safe! **Welcome to /r/OpenDirectories** Unprotected directories of pics, vids, music, software and otherwise interesting files. u9p Download high resolution audio files from Norwegian 2L in stereo 96kHz, 192kHz, DXD, DSD and 5. BBC SESSIONS 1976-1979 09/04/1976 Paris Theatre, London, England. where you can rip audio tracks to alac. Free Lossless Audio Codec (FLAC) is an audio compression codec primarily authored by Josh Coalson. This is similar to how Zip works, except with FLAC you will get much better compression because it is designed specifically for audio, and you can play back compressed FLAC files in your favorite player (or your car or home stereo, see. 5n u3 And you may get representative free audio converter or. 2013 06:01: 23 MB: Red Hot Chili Peppers - Why Don't You Love Me. 3c Red Hot Chili Peppers - Out in L. Music in lossless format - is an opportunity to listen to music with new sensations of the original sound in uncompressed and lossless quality. Index of /repo/pkgs/flac/flac-1. Robyn, an American publicist working for a cutthroat London PR company that represents troubled celebrities, is adept at keeping her clients' lives appearing in perfect order, while her own falls to pieces. You can easily enjoy the wide variety of sounds thanks to the great beat. It may be used to rework single as well as a number of FLAC recordsdata to MP3 simply. Genre : Hard Rock Release Date : 2022 Format : Flac (tracks) / Flac (tracks) Quality : 16bit – 44. To enable you to sample on your Walkman, the same track is available in High-Resolution Audio and a widely used compressed audio format. Within Temptation - The Heart Of Everything (Special Edition) (2022) Hi-Res +. Index for a track in a The first index in a track must have a number of 0 or 1, and subsequently, index_numbers must increase. Elvis Presley - Classic Love Balads 1986 [FLAC]-JDR: 0. Courtney Barnett - Tell Me How You Really Feel (2018) [FLAC 24bit/44,1kHz] Ten Tuff Guitars - The Swinging Electric Sounds of the Ten Tuff Guitars (1966/2016) [HDTracks FLAC 24bit/192kHz] Simple Minds - Walk Between Worlds (2018) [7Digital FLAC 24bit/44,1kHz] Animal Flag - Void Ripper (2018) [FLAC 24bit/96kHz]. FLAC is a non-proprietary, open source audio file format standard e. NOTE: On 64-bit Windows, you may find these folders in "C:\Program Files (x86)". You're attempting to require the Flac file, which won't work because the interpreter is attempting to read that as a ts/js source file . Hi-Res / Rap / Hip-Hop / Soul / Funk / RnB. If you want to best preserve the quality of your CDs, use a program that will prioritize quality. wnr Audio: FLAC 24 bit / 96 kHz (Tracks) + FLAC 16 bit / 44. [ICO], Name · Last modified · Size · Description. n52 About Flac Index Of Floyd Pink. Katy Perry (2008) - One Of The Boys (Flac-Eac-Cue) 0. 1 kHz (Tracks) Performer: Ibrahim Electric Album: Time Machine Published: 2020 Genre: Jazz, Funk, Fusion File Size: 873 Mb + 257 Mb. Quality: FLAC (log,tracks,cue) Total Time: 01:00:55. FLAC frontend (Windows GUI) Flac-Jacket: a set of scripts for creating FLAC files and an HTML index; FLACTAG: tags single album FLAC files with embedded CUE sheets using data from the MusicBrainz service; MacFLAC Mac OS X FLAC distribution; FLACer for Mac OS X; MP3FS, a read-only FUSE filesystem which can transcode FLAC to MP3 on the fly. 2 © 2003-04 Kai Blankenhorn valid XHTML 1. FLAC stands for Free Lossless Audio Codec, an audio format similar to MP3, but lossless, meaning that audio is compressed in FLAC without any loss in quality. Total Size: 255 Mb WebSite: Album Preview Tracklist: 01. Alternatively the current version of EAC comes with an older FLAC encoder in "C:\Program Files\Exact Audio Copy\Flac". Index Of Muse Flac Add to Cart Add to. We sincerely apologize for the inconveince but we greatly appreciate your patience. 56k This blog is merely an index with public links for audio recordings of independent origin ROIO which have not been officially released. dr_flac is a single file library. View the profile of tapeworm48. Search: Index Of Pink Floyd Flac. 6b Convert MP4, AVI, WMV, FLV, MOV, MKV, and many others to WAV, OGG, MP3, FLAC, AIFF, WMA, and so on. 2013 22:58: 8 MB: Red Hot Chili Peppers - Police Helicopter. #define DR_FLAC_IMPLEMENTATION. FLAC is comprised of * `libFLAC', a library. Both selection and conversion processes are simple and fast, allowing you to batch convert any amount of FLAC files in one single operation. 0kHz Read More February 25, 2022. It may be used to convert single as well as multiple FLAC recordsdata to MP3 simply. Name · Last modified · Size · [PARENTDIR] · Parent Directory, -. Clint Mansell - Requiem For A Dream - Soundtrack - (2000) - FLAC-Tracks - Lossless/, 2017-02-13 21:39, -. Name Last modified Size Description · Parent Directory - ALEC_Cancion_SL. 米米CLUB - 聖米夜 [FLAC 24bit + MP3 320K / WEB] by Renge. exe is where it's supposed to be. This was the first time I had a chance to hear the new singer. You will see the verbose decoding/encoding process in the terminal which may take a few moments. Parent Directory - 12 String Dream 01. 0 MiB | Uploaded by chintu on 2021-09-10 Kpop flac Kpop flac FLAC frontend (Windows GUI) Flac-Jacket: a set of scripts for creating FLAC files and an HTML index; FLACTAG: tags single album FLAC files with embedded CUE sheets using data from the. 8gx Feels Like25° · WindE 14 mph · Humidity91% · UV Index0 of 10 · Cloud Cover100% · Rain Amount0. Performer: Pink Floyd Album: Echoes: The Best Of Pink Floyd Label: Pink Floyd, Sony Music, EMI Records. About Flac Floyd Index Pink Of. 6 disks, check the animation, hollywood, and SKY_EN_18 directories. Download samples of High-Resolution music files. October 2020 EAC extraction logfile from 1. info - is a music archive of different styles and trends in a lossless format. A digital audio recording compressed by FLAC can be decompressed into an identical copy of the original audio data. Artist: Van Halen Album: Van Halen Release/Reissue: 1978 Genre: Hard Rock 01. FILE "09 - Shirley Ellis - The Name Game. Index of /pub2/openpkg1/sources/SRC/flac. Last visit was: Tue Jan 26, 2021 10:06 pm. Index of /audio Name Size ; Parent Directory - 007-GeorgeWinston-Thanksgiving. mav Andy Williams - Music to Watch Girls By. Name · Last modified · Size · Description · Parent Directory, -. Find the latest Frazier Lifesciences Acquisition Corporation (FLAC) stock quote, history, news and other vital information to help you with your stock trading and investing. Open the CUE file with Notepad program, you will find that it records the singers of entire album in FLAC files, album name, FLAC file name, track number, each track title, artist, start time and end time. UV index - 5 day forecast for Flic en Flac , mauritius. The following guide will show you easy methods to convert FLAC recordsdata on Mac inside 3 easy steps. Whether you are encoding or decoding, any number of files can be converted at the same time by adding them at the end of the command in a space-separated list. 2q6 I am not sure why and I have tried a couple different cue splitters with the same issue. Thus, any FLAC file can serve as a master/archive copy, regardless of compression level. Index of /sounds/Walter Wanderley - Rain Forest (1966) [FLAC]/. Grossly oversimplified, FLAC is similar to MP3, but lossless, meaning that audio is compressed in FLAC without any loss in quality. Index of /realfiles/b Name Last modified Size Description : Parent Directory - 01_badreligion-incom. Album : Discography (Studio albums) Year : 1983-2014. Tuesday, 14-Dec-2021 03:33:17 GMT. January 2009, 16:37 Faith Evans / Faith Used drive : PIONEER DVD-RW DVR-K17RS Adapter: 0 ID: 0. Maybe the bit rate is too high? This is from Mediainfo: FLAC: 84. Bandcamp - CD - Vinyl - Tape - FLAC Download Without Torrent - Results for Misery Index. About Index Flac Of FLAC files usually contain CD quality audio, but can also support almost any audio data with a wide range of sample frequencies, amount of channels and bits per sample. 4 MiB: 11/12/20 20:49:26: Manuel - Gas Gas Gas. and Program Associated Data Authority. [DIR], ななひら - すりーぷ! (2016) - FLAC/, 18-Dec-2016 04:26, -. rvn e4z [ICO], Name · Last modified · Size . Design and layout of the site Creamusic. Hip Hop Drum loop 2-5628-Free-Loops. 7t f6 The Qt Company Ltd, Bertel Jungin aukio D3A, 02600 Espoo, Finland. The converter additionally assist frequent formats such as WAV, M4R (iPhone ringtone), OGG, AAC, MMF, AC3, AMR, MKA, and so on. flac" WAVE TRACK 10 AUDIO TITLE "Wake Up My Mind" PERFORMER "The Ugly's" REM COMPOSER "" INDEX 01 00:00:00 FILE "11 - The Yardbirds - Heart Full Of Soul. Index Of Radiohead Flac CyR4[x] - Radiohead - OK Computer OKNOTOK 1997 2017 - [16-44. Lynyrd Skynyrd - Sweet Home Alabama. Last Edit: 2014-01-14 15:31:25 by eahm. FLAC only matters if the source files are orginally higher resolution than the CD "standard" of 16 bit/44. 00b: October 5 2013 at 23:05: Enya - Only Time Collection. The Caribbean - Moon Sickness (2014) FLAC. 7u 2011-12-03上海国际汽车零配件、维修检测诊断设备 2011-11-092011年11月25-28日伊朗展; 2011 . 52 org - Contact us for any business inquiries. Nonetheless, WAV has an enormous drawback, it has a big file dimension. 22 GiB The difference between FLAC and MP3 (even worse with youtube. Index of /sounds/mp3s/Doris Day - 16 Most Requested Songs [FLAC+MP3](Big Papi) Vocal Pop 50's and 60's/16 Most Requested Songs (MP3) . When I open them in musicbee it show the tracks. zh 0kHz Read More February 19, 2022. This would create (or add to) a directory in my media raid like this: Pink Floyd\1973 - Dark Side of the Moon\01 - Speak To Me. Quality: FLAC 24 bit / 96 kHz (Tracks) Artist: Hazel Scott Title: Always Released: 1979 / 2022 Style: Soul, R&B, Disco RAR Size: 581 Mb. / - Directory [thn100]-00-va_-_100. flac, 2018-06-01 13:28, 14440k ; File 02. Download HiRes Songs 24bit FLAC/WAV Tamil, Telugu, Hindi, Malayalam, Kannada All Songs Free. In some ways, one could view this as the best of the John Frusciante years, charting most of the band’s work with the talented guitarist after the death of original. df 4ss fxj 1991 - Demo 72826 [EP]/, -, 2014-Dec-01 21:01. cd FLAC files take advantage of the fact that an audio file can be compressed to 70 percent of its original size and remain identical to the original file. k0 On our site you can download lossless music for free and without registration, favorite performers in flac format, for fans to listen to vinyl digitization - Vinyl rip, gourmets of the music world who want to listen to multi-channelFLAC Music | FLAC music download. io/webcodecs/#dom-audiodecoderconfig-descriptionReferenced in: Unnumbered Section; 3. NoobFTP2 NoobFTP1 ; Parent Directory · 3. flac file may be used as album container with CUE index file, that point to track beginings. com helps you download free FLAC, M4A, Mp3 songs. 51 GiB: Dirs: 2,229 Ext: 80: Total: 27,233: Total: 651. UNAMAS Strings Septet - Tschaikovsky: Souvenir de Florence, Op. About Index Flac Pink Floyd Of. 55 MB: 22 2: 24 Авг 20: Pink Floyd - Transmissions + 1969 [Unofficial Release] (2020) MP3 : 341. About Floyd Pink Index Flac Of. vj1 Lossless/ALBUMS/1968 - Shades Of Deep Purple. About Of Floyd Flac Index Pink. Step 5: Click on Convert tab in the main window to open the “Audio Conversion” window. hc Quality: FLAC (tracks) Tracklist:. Rahman - 40 Greatest Hits of A. Saya pun mengubah isi PERFORMER menjadi penyanyi . Free Download Discography in Highest Quality, Flac (Lossless), Mp3 320 kbps, All Music Genres from Around the World, Only in Discogc.